Jump to content
BulForum.com

Recommended Posts

  • Replies 7.7k
  • Created
  • Last Reply

Top Posters In This Topic

Стандартния битрейт, с който вървят HD-каналите на БНТ по IPTV е 12 Mbps и е обявен тук. Понякога (напр. снощи по време на мача по БНТ1 HD) даже са с малко по-висок.

Това е 1.5 MBps и вече трябва да си направиш извода какъв е стрийма, който лъчат Булсат за IPTV, щом при теб е само пик, а не постоянна скорост.

 

Това е от БНТ3 HD от преди малко:

[spoiler]

Format                                   : MPEG-TS
File size                                : 271 MiB
Duration                                 : 3 min 25 s
Overall bit rate mode                    : Variable
Overall bit rate                         : 11.1 Mb/s

Video
ID                                       : 256 (0x100)
Menu ID                                  : 1 (0x1)
Format                                   : AVC
Format/Info                              : Advanced Video Codec
Format profile                           : High@L4
Format settings                          : CABAC / 3 Ref Frames
Format settings, CABAC                   : Yes
Format settings, Reference frames        : 3 frames
Format settings, GOP                     : M=3, N=12
Codec ID                                 : 27
Duration                                 : 3 min 25 s
Bit rate                                 : 9 872 kb/s
Width                                    : 1 920 pixels
Height                                   : 1 080 pixels
Display aspect ratio                     : 16:9
Frame rate                               : 25.000 FPS
Standard                                 : Component
Color space                              : YUV
Chroma subsampling                       : 4:2:0
Bit depth                                : 8 bits
Scan type                                : MBAFF
Scan type, store method                  : Interleaved fields
Scan order                               : Top Field First
Bits/(Pixel*Frame)                       : 0.190
Stream size                              : 242 MiB (89%)
Color range                              : Limited
Color primaries                          : BT.709
Transfer characteristics                 : BT.709
Matrix coefficients                      : BT.709

Audio
ID                                       : 257 (0x101)
Menu ID                                  : 1 (0x1)
Format                                   : AC-3
Format/Info                              : Audio Coding 3
Commercial name                          : Dolby Digital
Codec ID                                 : 129
Duration                                 : 3 min 25 s
Bit rate mode                            : Constant
Bit rate                                 : 640 kb/s
Channel(s)                               : 6 channels
Channel layout                           : L R C LFE Ls Rs
Sampling rate                            : 48.0 kHz
Frame rate                               : 31.250 FPS (1536 SPF)
Compression mode                         : Lossy
Delay relative to video                  : -162 ms
Stream size                              : 15.7 MiB (6%)
Language                                 : Bulgarian
Service kind                             : Complete Main

[/spoiler]

 

А това е от БНТ1 HD по време на снощния мач:

[spoiler]

Format                                   : MPEG-TS
File size                                : 239 MiB
Duration                                 : 2 min 44 s
Overall bit rate mode                    : Variable
Overall bit rate                         : 12.2 Mb/s

Video
ID                                       : 256 (0x100)
Menu ID                                  : 1 (0x1)
Format                                   : AVC
Format/Info                              : Advanced Video Codec
Format profile                           : High@L4
Format settings                          : CABAC / 2 Ref Frames
Format settings, CABAC                   : Yes
Format settings, Reference frames        : 2 frames
Codec ID                                 : 27
Duration                                 : 2 min 44 s
Bit rate                                 : 11.3 Mb/s
Width                                    : 1 920 pixels
Height                                   : 1 080 pixels
Display aspect ratio                     : 16:9
Frame rate                               : 25.000 FPS
Color space                              : YUV
Chroma subsampling                       : 4:2:0
Bit depth                                : 8 bits
Scan type                                : MBAFF
Scan type, store method                  : Interleaved fields
Scan order                               : Top Field First
Bits/(Pixel*Frame)                       : 0.218
Stream size                              : 221 MiB (92%)

Audio
ID                                       : 257 (0x101)
Menu ID                                  : 1 (0x1)
Format                                   : MPEG Audio
Format version                           : Version 1
Format profile                           : Layer 2
Codec ID                                 : 3
Duration                                 : 2 min 44 s
Bit rate mode                            : Constant
Bit rate                                 : 256 kb/s
Channel(s)                               : 2 channels
Sampling rate                            : 48.0 kHz
Frame rate                               : 41.667 FPS (1152 SPF)
Compression mode                         : Lossy
Delay relative to video                  : -105 ms
Stream size                              : 5.03 MiB (2%)
Language                                 : Bulgarian

[/spoiler]

 

Изненада ме приятно, та чак леко ме шокира, това че аудиострийма на БНТ3 HD e 5.1 Dolby digital !!!

Не знам дали има предавания, които пускат с такъв звук, но фактът, че технически са готови за това е похвален!

Ще го следя повече за да видя (чуя).

Link to post
Share on other sites

Сменяха техника, точно заради спортните събития. Някъде беше коментирано. БНТ3 направо трябваше да е БНТ Спорт, но това е друга тема.

Link to post
Share on other sites
18 minutes ago, plameni said:

Стандартния битрейт, с който вървят HD-каналите на БНТ по IPTV е 12 Mbps и е обявен тук. Понякога (напр. снощи по време на мача по БНТ1 HD) даже са с малко по-висок.

Това е 1.5 MBps и вече трябва да си направиш извода какъв е стрийма, който лъчат Булсат за IPTV, щом при теб е само пик, а не постоянна скорост.

 

Това е от БНТ3 HD от преди малко:

[spoiler]


Format                                   : MPEG-TS
File size                                : 271 MiB
Duration                                 : 3 min 25 s
Overall bit rate mode                    : Variable
Overall bit rate                         : 11.1 Mb/s

Video
ID                                       : 256 (0x100)
Menu ID                                  : 1 (0x1)
Format                                   : AVC
Format/Info                              : Advanced Video Codec
Format profile                           : High@L4
Format settings                          : CABAC / 3 Ref Frames
Format settings, CABAC                   : Yes
Format settings, Reference frames        : 3 frames
Format settings, GOP                     : M=3, N=12
Codec ID                                 : 27
Duration                                 : 3 min 25 s
Bit rate                                 : 9 872 kb/s
Width                                    : 1 920 pixels
Height                                   : 1 080 pixels
Display aspect ratio                     : 16:9
Frame rate                               : 25.000 FPS
Standard                                 : Component
Color space                              : YUV
Chroma subsampling                       : 4:2:0
Bit depth                                : 8 bits
Scan type                                : MBAFF
Scan type, store method                  : Interleaved fields
Scan order                               : Top Field First
Bits/(Pixel*Frame)                       : 0.190
Stream size                              : 242 MiB (89%)
Color range                              : Limited
Color primaries                          : BT.709
Transfer characteristics                 : BT.709
Matrix coefficients                      : BT.709

Audio
ID                                       : 257 (0x101)
Menu ID                                  : 1 (0x1)
Format                                   : AC-3
Format/Info                              : Audio Coding 3
Commercial name                          : Dolby Digital
Codec ID                                 : 129
Duration                                 : 3 min 25 s
Bit rate mode                            : Constant
Bit rate                                 : 640 kb/s
Channel(s)                               : 6 channels
Channel layout                           : L R C LFE Ls Rs
Sampling rate                            : 48.0 kHz
Frame rate                               : 31.250 FPS (1536 SPF)
Compression mode                         : Lossy
Delay relative to video                  : -162 ms
Stream size                              : 15.7 MiB (6%)
Language                                 : Bulgarian
Service kind                             : Complete Main

[/spoiler]

 

А това е от БНТ1 HD по време на снощния мач:

[spoiler]


Format                                   : MPEG-TS
File size                                : 239 MiB
Duration                                 : 2 min 44 s
Overall bit rate mode                    : Variable
Overall bit rate                         : 12.2 Mb/s

Video
ID                                       : 256 (0x100)
Menu ID                                  : 1 (0x1)
Format                                   : AVC
Format/Info                              : Advanced Video Codec
Format profile                           : High@L4
Format settings                          : CABAC / 2 Ref Frames
Format settings, CABAC                   : Yes
Format settings, Reference frames        : 2 frames
Codec ID                                 : 27
Duration                                 : 2 min 44 s
Bit rate                                 : 11.3 Mb/s
Width                                    : 1 920 pixels
Height                                   : 1 080 pixels
Display aspect ratio                     : 16:9
Frame rate                               : 25.000 FPS
Color space                              : YUV
Chroma subsampling                       : 4:2:0
Bit depth                                : 8 bits
Scan type                                : MBAFF
Scan type, store method                  : Interleaved fields
Scan order                               : Top Field First
Bits/(Pixel*Frame)                       : 0.218
Stream size                              : 221 MiB (92%)

Audio
ID                                       : 257 (0x101)
Menu ID                                  : 1 (0x1)
Format                                   : MPEG Audio
Format version                           : Version 1
Format profile                           : Layer 2
Codec ID                                 : 3
Duration                                 : 2 min 44 s
Bit rate mode                            : Constant
Bit rate                                 : 256 kb/s
Channel(s)                               : 2 channels
Sampling rate                            : 48.0 kHz
Frame rate                               : 41.667 FPS (1152 SPF)
Compression mode                         : Lossy
Delay relative to video                  : -105 ms
Stream size                              : 5.03 MiB (2%)
Language                                 : Bulgarian

[/spoiler]

 

Изненада ме приятно, та чак леко ме шокира, това че аудиострийма на БНТ3 HD e 5.1 Dolby digital !!!

Не знам дали има предавания, които пускат с такъв звук, но фактът, че технически са готови за това е похвален!

Ще го следя повече за да видя (чуя).

Както казах по-горе нямам претенции,  че  булсата  са  с  най-хубавото  качество,  а че  не  са  тотален  шит както се изказаха  някои  хора,  които  дори  не  знаят,  че  вече  нямат  приложение за тизен.  Картината  е  доста  прилична  за  55 инчов телевизор,  което  мен  пък  ме  устройва  напълно. 

Иначе похвално  за  БНТ,  но  с  настъпването  на  акули от  типа  на  Юнайтед груп не  виждам  скоро  да  предават  някакви  смислени  спортни предавания.  

Link to post
Share on other sites

Привет,

също ползвам булсатком. Оптиката е добре. И я ползвам защото няма друга опция за оптика до жилището.. Няма нет само когато няма ток от 3-4 години вече.
Относно ТВ услугите и приложението. Приемниците ми са фюжън(малките черни андроид кутии ) и са ок, но ги използвам на стари ТВ които не са смарт. Тоест не мога да дам инфо как са на нови тв.
Относно приложението - мн зле е . Качеството на картината при гледане с андроид телефон е зле - и като фиичъри. Имам подобна услуга включена към мобилния абонаментен план на телефона - виваком. Това ми е базата за сравнение. Булсатком приложението дава картина с резолюция около 900 на 600 или по малко независимо кой канал е пуснат при андроид телефон. Мачка яко. Което на телефон с 2к резолюция е зле. Отделно снощи направих експеримент с БНТ3 ХД - имам я и на булсатком аппа и на аппа на виваком. Вивакомския апп ми дава 1920 на 1080 стриим и картината е на ниво.
Не целя реклама. Такива са ми наблюденията. В бъдеще бил пробвал платформата на тиви.

 

Edited by xyz_1897
Link to post
Share on other sites
12 minutes ago, xyz_1897 said:

Привет,

също ползвам булсатком. Оптиката е добре. И я ползвам защото няма друга опция за оптика до жилището.. Няма нет само когато няма ток от 3-4 години вече.
Относно ТВ услугите и приложението. Приемниците ми са фюжън(малките черни андроид кутии ) и са ок, но ги използвам на стари ТВ които не са смарт. Тоест не мога да дам инфо как са на нови тв.
Относно приложението - мн зле е . Качеството на картината при гледане с андроид телефон е зле - и като фиичъри. Имам подобна услуга включена към мобилния абонаментен план на телефона - виваком. Това ми е базата за сравнение. Булсатком приложението дава картина с резолюция около 900 на 600 или по малко независимо кой канал е пуснат при андроид телефон. Мачка яко. Което на телефон с 2к резолюция е зле. Отделно снощи направих експеримент с БНТ3 ХД - имам я и на булсатком аппа и на аппа на виваком. Вивакомския апп ми дава 1920 на 1080 стриим и картината е на ниво.
Не целя реклама. Такива са ми наблюденията. В бъдеще бил пробвал платформата на тиви.

 

Здравей, 

да  за  телефон  е  зле.  Това  никой не  го отрича.  Пробвай на андроид  тв бокс  или  телевизор  с  андроид   и  може  да  споделиш отново  впечатления :)

Link to post
Share on other sites

В сайта на булсатком в раздела с QA някъде бях мернал че в зависимост от платформата и устройството битрейта е различен, така че това което казваш ще е вярно най-вероятно. Бях пробвал под уин10 с емулатор на андроид но картината на аппа беше на същото зле ниво.
нвм, понеже на тоя етап смарт 4к тв не ми е приоритет измежду инвестициите, някой да е пробвал под разбери пи4 как е положението. Било то с тяхната си ОС или друга или някакъв емулатор, знам че самото РПИ4 в ютуб на 1080п беше сравнително лагаво до преди месец-два като го пробвах но все пак.

 
 

Link to post
Share on other sites
5 minutes ago, ivander said:

Не че нещо, но защо не вземете да преместите дискусията в темата за Булсатком?

Извинявам се, спирам да пиша за булсата, ако някой има въпроси за андроидското им приложение да пише там. 

Ако сметне модератор, може да изтрие всички мои мнения не свързани с Н3.

Link to post
Share on other sites

Под Kodi картинката е сълза, както е при андроид тв.

Може да слагате на телефон, компютър, линукс, уиндоус, raspberryPi и т.н.

4K каналите са си 4K, другите са 720p.

Четете в кодибг форума, как да го нагласите.

https://kodibg.org/forum/thread-532.html

 

 

Screenshot_2021-02-27-08-26-57-249_org.xbmc.kodi~2.jpg

Screenshot_2021-02-27-08-27-20-298_org.xbmc.kodi~2.jpg

Screenshot_2021-02-27-08-27-27-465_org.xbmc.kodi.jpg

Edited by k-otixxx
Link to post
Share on other sites

Освен резолюция има значение и компресията, загубата на качество. И аз мога да взема снимка на 800х600 и да я опъна до 4к, но повврвай трудно ще разбереш какво гледаш. Отделно 720, прeдпочитам full hd

Edited by mIRCata
Link to post
Share on other sites

Нали била сълза? Сега била порядъчна. Аз пък търся качествено. Предпочитам на екран с резолюция 1980 да виждам картина с резолюция 1980 идваща със съответния обем данни, не 1280.

Примера от горе е валиден, кой разбрал, разбрал.  Но подвеждаш хората. Сигнал идващ FullHD, е сплескан до HD и после го разпъват на обратно на резолюция FullHD => мазало. Почти 1/3 от това което виждаш е предположения, щото някой трябва да си измисли липсващите пиксели до 1980, понеже доставчика ти ги е махнал.

Link to post
Share on other sites
3 hours ago, k-otixxx said:

4K каналите са си 4K...

 

Но са с битрейт под 12 мб/с и в дребните детайли изображението не е отчетливо, а "ври" (шуми).

 

Link to post
Share on other sites
3 hours ago, mIRCata said:

Освен резолюция има значение и компресията, загубата на качество.

 

Колкото и да е добър H265 като кодек, 3.5 - 3.7 мб/с не е кой знае колко много.

За романтични филми и статично студио става, но за спорт - не бих гледал на повече от 32"

 

Kodi-bulsatcom-2021-02-27-01a.png

Link to post
Share on other sites

Аз това.го обяснявам от сума време, ама... Това е една посредствена услуга... Бюджетно решение.

Link to post
Share on other sites

Аз го дадох за пример кодито, че е вариант, за който няма андроид тв , да гледа малко по-добро качество от мацаницата на 360p, на телефон  и компютър и отделно си има спортните канали, за разлика от андроид апа.

То половината "гледачи" по този начин е ясно , че са авантаджии и нямат Фюжън приемник.

 

Иначе за да влезем в темата за Ентри отново, ми е чудно дали Виваком няма да почнат да развиват кабелна коаксиална мрежа, поне в София и Пловдив:)

Как мислите ще се развие придобиването на тези фирми и ще се сменя ли платформата към интерактивна телевизия.

Link to post
Share on other sites

Не, Митак. Виваком започват да развиват GPON навсякъде и до вас вече има. Дори на местата, където има FTTB, ще развият GPON и ще прехвърлят всичко. Те така и трябваше да започнат. С FTTB направиха голяма грешка. Сещаш се как се тегли UTP в панелка, където слаботоковата е запълнена от старите медни кабели за телефони и звънци, коаксиали на поне 2 оператора, на места и 3-4, няма никаква проходимост. Идеалното решение беше да изкарат медните телефонни кабели и да захранят с оптика всички апартаменти - хем евтино, хем съпорта е почти никакъв, а който държи на телефонна услуга, му я пускат през влакното.

Link to post
Share on other sites
9 hours ago, k-otixxx said:

То половината "гледачи" по този начин е ясно , че са авантаджии и нямат Фюжън приемник.

Ти би ли си дал акаунта  през  който  си плащаш  булсата  на  някой друг? 

 

Иначе,  дано  сега  след като  ги  придобият  Виваком  да  вземат  да  пуснат  оптика  до  краен  клиент в Изгрев.  Ако  запазят  и  приложението  на  Н3 вместо  тяхното  ще  е  още  по-добре.  

Link to post
Share on other sites
14 minutes ago, splendor said:

Ти би ли си дал акаунта  през  който  си плащаш  булсата  на  някой друг? 


Да, какъв е проблема? Най-много да ми плати сметката. 

Link to post
Share on other sites
5 minutes ago, RaptoR said:


Да, какъв е проблема? Най-много да ми плати сметката. 

или да ти смени паролата :)

още чакам поканата да изплакна очите :)

Edited by splendor
Link to post
Share on other sites

Join the conversation

You can post now and register later. If you have an account, sign in now to post with your account.

Guest
Reply to this topic...

×   Pasted as rich text.   Paste as plain text instead

  Only 75 emoji are allowed.

×   Your link has been automatically embedded.   Display as a link instead

×   Your previous content has been restored.   Clear editor

×   You cannot paste images directly. Upload or insert images from URL.


Авточасти Онлайн 24


×
×
  • Create New...